<?xml version="1.0" standalone="no"?>
<!DOCTYPE svg PUBLIC "-//W3C//DTD SVG 1.1//EN" "http://www.w3.org/Graphics/SVG/1.1/DTD/svg11.dtd">
<svg xmlns="http://www.w3.org/2000/svg">
<metadata>Copyright (C) 2025 by original authors @ fontello.com</metadata>
<defs>
<font id="soma-icon" horiz-adv-x="1000" >
<font-face font-family="soma-icon" font-weight="400" font-stretch="normal" units-per-em="1000" ascent="850" descent="-150" />
<missing-glyph horiz-adv-x="1000" />
<glyph glyph-name="arrow-up-01" unicode="&#xe800;" d="M500 431l-228-228-44 44 272 272 272-272-44-44z" horiz-adv-x="1000" />

<glyph glyph-name="arrow-right-01" unicode="&#xe801;" d="M397 622l272-272-272-272-44 44 228 228-228 228z" horiz-adv-x="1000" />

<glyph glyph-name="arrow-down-01" unicode="&#xe802;" d="M772 453l-272-272-272 272 44 44 228-228 228 228z" horiz-adv-x="1000" />

<glyph glyph-name="arrow-left-01" unicode="&#xe803;" d="M419 350l228-228-44-44-272 272 272 272 44-44z" horiz-adv-x="1000" />

<glyph glyph-name="arrow-up-02" unicode="&#xe804;" d="M500 728l230-231-44-44-155 155 0-591-62 0 0 591-155-155-44 44z" horiz-adv-x="1000" />

<glyph glyph-name="arrow-right-02" unicode="&#xe805;" d="M647 581l231-231-231-230-44 44 155 155-591 0 0 62 591 0-155 155z" horiz-adv-x="1000" />

<glyph glyph-name="arrow-down-02" unicode="&#xe806;" d="M531 92l155 155 44-44-230-231-230 231 44 44 155-155 0 591 62 0z" horiz-adv-x="1000" />

<glyph glyph-name="arrow-left-02" unicode="&#xe807;" d="M242 319l155-155-44-44-230 230 230 231 44-45-155-155 591 0 0-62z" horiz-adv-x="1000" />

<glyph glyph-name="thumbs-up" unicode="&#xe808;" d="M561 726c12 13 32 13 45 0l83-83c8-8 11-20 8-31l-51-168 270 0c22 0 37-20 30-41l-131-438-732 0c-17 0-31 14-31 31l0 417c0 17 14 31 31 31l196 0z m22-66l-260-260 0-373 445 0 107 354-313 0 69 231z m-322-279l-146 0 0-354 146 0z" horiz-adv-x="1000" />

<glyph glyph-name="thumbs-down" unicode="&#xe809;" d="M279 256l-196 0c-17 0-31 14-31 32l0 416c0 17 14 31 31 31l209 0 0 0 0 0 523 0 132-438c6-20-10-41-31-41l-270 0 51-168c3-11 0-23-8-31l-83-83c-13-12-33-12-45 0z m44 45l260-261 48 48-69 231 313 0-107 354-445 0z m-208 18l145 0 0 354-145 0z" horiz-adv-x="1000" />

<glyph glyph-name="circle-arrow-up-02" unicode="&#xe80a;" d="M500 798c247 0 448-201 448-448 0-247-201-448-448-448-247 0-448 201-448 448 0 247 201 448 448 448z m-385-448c0-213 172-385 385-385 213 0 385 172 385 385 0 213-172 385-385 385-213 0-385-172-385-385z m532 64l-44-44-72 71 0-258-62 0 0 258-72-71-44 44 147 147z" horiz-adv-x="1000" />

<glyph glyph-name="circle-arrow-right-02" unicode="&#xe80b;" d="M500 798c247 0 448-201 448-448 0-247-201-448-448-448-247 0-448 201-448 448 0 247 201 448 448 448z m-385-448c0-213 172-385 385-385 213 0 385 172 385 385 0 213-172 385-385 385-213 0-385-172-385-385z m596 0l-147-147-44 44 71 72-258 0 0 62 258 0-71 72 44 44z" horiz-adv-x="1000" />

<glyph glyph-name="circle-arrow-down-02" unicode="&#xe80c;" d="M500 798c247 0 448-201 448-448 0-247-201-448-448-448-247 0-448 201-448 448 0 247 201 448 448 448z m-385-448c0-213 172-385 385-385 213 0 385 172 385 385 0 213-172 385-385 385-213 0-385-172-385-385z m488-20l44-44-147-147-147 147 44 44 72-71 0 258 62 0 0-258z" horiz-adv-x="1000" />

<glyph glyph-name="circle-arrow-left-02" unicode="&#xe80d;" d="M500 798c247 0 448-201 448-448 0-247-201-448-448-448-247 0-448 201-448 448 0 247 201 448 448 448z m-385-448c0-213 172-385 385-385 213 0 385 172 385 385 0 213-172 385-385 385-213 0-385-172-385-385z m365-103l-44-44-147 147 147 147 45-44-72-72 258 0 0-62-258 0z" horiz-adv-x="1000" />

<glyph glyph-name="copyright" unicode="&#xe80e;" d="M52 350c0 247 201 448 448 448 247 0 448-201 448-448 0-247-201-448-448-448-247 0-448 201-448 448z m63 0c0-212 173-385 385-385 213 0 386 173 386 385 0 213-173 385-386 385-212 0-385-172-385-385z m229-167l0 334c0 17 14 31 31 31l250 0c17 0 31-14 31-31l0-104-62 0 0 72-188 0 0-270 188 0 0 73 62 0 0-105c0-17-14-31-31-31l-250 0c-17 0-31 14-31 31z" horiz-adv-x="1000" />

<glyph glyph-name="cancel-01" unicode="&#xe80f;" d="M500 394l259 270 42-44-259-270 259-269-42-45-259 270-259-270-42 45 259 269-259 270 42 44z" horiz-adv-x="1000" />

<glyph glyph-name="menu-01" unicode="&#xe810;" d="M833 610l-666 0 0 63 666 0z m0-291l-666 0 0 62 666 0z m-666-292l0 63 666 0 0-63z" horiz-adv-x="1000" />

<glyph glyph-name="sun-03" unicode="&#xe811;" d="M260 350c0 132 108 240 240 240 132 0 240-108 240-240 0-132-108-240-240-240-132 0-240 108-240 240z m240 177c-98 0-177-79-177-177 0-98 79-177 177-177 98 0 177 79 177 177 0 98-79 177-177 177z m317-449l-44-45-74 74 44 44z m-348 585l0 104 62 0 0-104z m-386-282l105 0 0-62-105 0z m730 0l104 0 0-62-104 0z m-344-448l0 105 62 0 0-105z m-168 660l-44-44-74 74 45 44z m472 74l44-44-74-74-44 44z m-516-516l44-44-74-74-44 45z" horiz-adv-x="1000" />

<glyph glyph-name="moon-02" unicode="&#xe812;" d="M438 765c8-10 9-23 3-34-24-45-38-97-38-153 0-179 146-325 325-325 56 0 108 14 153 38 11 6 24 5 34-3 10-7 14-20 11-32-44-191-216-333-421-333-238 0-432 194-432 432 0 205 142 377 333 421 12 3 25-1 32-11z m-80-70c-131-57-223-188-223-340 0-204 166-370 370-370 152 0 283 92 340 223-37-11-76-18-117-18-214 0-388 174-388 388 0 41 7 80 18 117z" horiz-adv-x="1000" />

<glyph glyph-name="search-01" unicode="&#xe813;" d="M458 798c225 0 407-182 407-406 0-101-37-194-98-265l172-172-44-44-172 172c-71-61-164-98-265-98-224 0-406 182-406 407 0 224 182 406 406 406z m-343-406c0-190 154-344 343-344 190 0 344 154 344 344 0 190-154 343-344 343-189 0-343-153-343-343z" horiz-adv-x="1000" />

<glyph glyph-name="filter" unicode="&#xe814;" d="M129 756l742 0c19 0 35-16 35-35l0-176-251-210-44-297-176-90c-22-12-48 3-51 28l-38 359-252 210 0 176c0 19 16 35 35 35z m27-62l0-120 249-207 37-345 112 57 42 288 248 207 0 120z" horiz-adv-x="1000" />

<glyph glyph-name="car-03" unicode="&#xe815;" d="M83 569l0 62 500 0c10 0 19-4 25-12l162-202 160-81c11-5 18-16 18-28l0-208c0-17-14-31-32-31l-97 0c-14-48-58-84-111-84-52 0-96 36-110 84l-196 0c-14-48-58-84-110-84-53 0-97 36-111 84l-97 0c-18 0-32 14-32 31l0 298 69 171z m736-438l66 0 0 158-142 71-628 0 0-229 66 0c14 48 58 84 111 84 52 0 96-36 110-84l196 0c14 48 58 84 110 84 53 0 97-36 111-84z m-413 438l0-146 279 0-117 146z m-276-146l214 0 0 146-156 0z m578-271c-28 0-52-23-52-52 0-29 24-52 52-52 29 0 52 23 52 52 0 29-23 52-52 52z m-416 0c-29 0-52-23-52-52 0-29 23-52 52-52 28 0 52 23 52 52 0 29-24 52-52 52z" horiz-adv-x="1000" />

<glyph glyph-name="camera-video" unicode="&#xe816;" d="M428 724c24 23 57 38 93 38 75 0 135-61 135-136 0-27-8-52-21-73l73 0c18 0 32-14 32-31l0-74 163 81c9 5 21 4 30-1 9-6 15-16 15-27l0-375c0-11-6-21-15-26-9-6-21-7-30-2l-163 82 0-75c0-17-14-31-32-31l-195 0 113-113-44-45-155 155 0-174-62 0 0 174-155-155-45 45 114 113-196 0c-17 0-31 14-31 31l0 417c0 17 14 31 31 31l84 0c-20 26-32 59-32 94 0 86 70 156 157 156 58 0 109-32 136-79z m-313-233l0-354 562 0 0 354-562 0z m625-241l145-73 0 274-145-73z m-542 397c0-52 42-94 94-94 52 0 93 42 93 94 0 52-41 94-93 94-52 0-94-42-94-94z m323 52c-40 0-73-33-73-73 0-40 33-73 73-73 40 0 73 33 73 73 0 40-33 73-73 73z" horiz-adv-x="1000" />

<glyph glyph-name="calendar-04" unicode="&#xe817;" d="M94-67l0 750c0 18 14 32 31 32l115 0 0 52 62 0 0-52 396 0 0 52 62 0 0-52 115 0c17 0 31-14 31-32l0-750c0-17-14-31-31-31l-750 0c-17 0-31 14-31 31z m750 511l-688 0 0-479 688 0z m-604 156l0 52-84 0 0-146 688 0 0 146-84 0 0-52-62 0 0 52-396 0 0-52z" horiz-adv-x="1000" />

<glyph glyph-name="book-open-02" unicode="&#xe818;" d="M734 745c18 11 48 1 48-27l0-44 126 36c7 2 15 2 22-2 6-3 10-7 12-10 4-5 5-9 5-11 1-3 1-5 1-6l0 0c0-2 0-3 0-4l0 0c0 0 0-1 0-1l0-607-446-127-450 127 0 610c0 24 23 35 40 30l403-113z m-263-729l-2 522-354 100 0-522z m249 646l-189-117 2-506 187 147z m62-52l0-455-136-107 239 69 0 522z m166 65l0 0c0 0 0 0 0 0z" horiz-adv-x="1000" />

<glyph glyph-name="pencil-edit-01" unicode="&#xe819;" d="M730 705l125-125c13-12 13-31 0-44l-500-500c-4-4-9-7-14-8l-167-42c-10-2-22 1-29 9-8 7-11 19-9 29l42 167c1 5 4 10 8 14l500 500c13 13 32 13 44 0z m-147-191l-346-347-27-107 107 27 347 346z m-125-529l0 63 292 0 0-63z m250 493l81 80-81 81-80-81z" horiz-adv-x="1000" />

<glyph glyph-name="camera-01" unicode="&#xe81a;" d="M337 798l326 0 40-167 206 0 22-729-862 0 21 699c1 17 14 30 30 30l177 0z m-55-229l-133 0-18-604 738 0-18 604-133 0 11-45-58-15-54 226-234 0-54-226-58 15z m48-302c0 98 76 177 170 177 94 0 170-79 170-177 0-98-76-177-170-177-94 0-170 79-170 177z m170 114c-61 0-110-51-110-114 0-64 49-115 110-115 61 0 110 51 110 115 0 63-49 114-110 114z m40 261l0-84-80 0 0 84z" horiz-adv-x="1000" />

<glyph glyph-name="video-01" unicode="&#xe81b;" d="M70 683c0 18 13 32 30 32l600 0c17 0 30-14 30-32l0-174 155 97c9 6 20 6 30 0 9-5 15-16 15-27l0-458c0-11-6-22-15-27-10-6-21-6-30 0l-155 97 0-174c0-18-13-32-30-32l-600 0c-17 0-30 14-30 32z m60-31l0-604 540 0 0 604z m600-388l140-88 0 348-140-87z m-160 284l0-188-180 0 0 188z m-120-125l60 0 0 62-60 0z" horiz-adv-x="1000" />

<glyph glyph-name="comment-01" unicode="&#xe81c;" d="M948 798l0-727-478 0-200-162c-20-17-51-2-51 25l0 137-167 0 0 727z m-833-665l166 0 0-135 167 135 437 0 0 602-770 0z m552 165l-333 0 0 62 333 0z m-333 208l0 63 166 0 0-63z" horiz-adv-x="1000" />

<glyph glyph-name="share-05" unicode="&#xe81d;" d="M125 583l125 0 0-62-94 0 0-563 688 0 0 563-94 0 0 62 125 0c17 0 31-14 31-31l0-625c0-17-14-31-31-31l-750 0c-17 0-31 14-31 31l0 625c0 17 14 31 31 31z m375 221l147-147-44-44-72 72 0-425-62 0 0 425-72-72-44 44z" horiz-adv-x="1000" />

<glyph glyph-name="download-square-01" unicode="&#xe81e;" d="M125 756l750 0c17 0 31-14 31-31l0-750c0-17-14-31-31-31l-750 0c-17 0-31 14-31 31l0 750c0 17 14 31 31 31z m31-750l688 0 0 688-688 0z m313 552l62 0 0-222 53 45 41-47-125-108-125 108 41 47 53-45z m-136-448l0 63 334 0 0-63z" horiz-adv-x="1000" />

<glyph glyph-name="comment-add-01" unicode="&#xe81f;" d="M542 798l0-63-427 0 0-602 166 0 0-135 167 135 437 0 0 259 63 0 0-321-478 0-200-162c-20-17-51-2-51 25l0 137-167 0 0 727z m177-167l0 136 62 0 0-136 136 0 0-62-136 0 0-136-62 0 0 136-136 0 0 62z m-136-271l0-62-250 0 0 62z m-125 146l-125 0 0 63 125 0z" horiz-adv-x="1000" />

<glyph glyph-name="youtube" unicode="&#xe820;" d="M500 715c158 0 305-16 424-43l24-5 0-634-24-5c-119-27-266-43-424-43-158 0-305 16-423 43l-25 5 0 634 25 5c118 27 265 43 423 43z m-385-631c109-23 242-36 385-36 144 0 276 13 385 36l0 532c-109 23-241 36-385 36-143 0-276-13-385-36z m276 460l291-167c10-5 16-16 16-27 0-11-6-22-16-27l-291-167c-10-5-22-5-32 0-9 6-15 16-15 27l0 334c0 11 6 21 15 27 10 5 22 5 32 0z m15-307l198 113-198 113z" horiz-adv-x="1000" />

<glyph glyph-name="timer-02" unicode="&#xe821;" d="M400 735l0 63 240 0 0-63-90 0 0-20c73-2 140-25 198-63l51 54 42-45-45-46c82-75 134-184 134-307 0-224-175-406-390-406l-440 0 0 63 440 0c182 0 330 154 330 343 0 190-148 344-330 344-170 0-312-134-330-305l-60 6c11 105 61 197 133 262l-44 46 42 45 51-53c47 30 101 51 158 58l0 24z m159-342l100 104 42-44-100-104c6-12 9-26 9-41 0-51-40-93-90-93-50 0-90 42-90 93 0 52 40 94 90 94 14 0 27-3 39-9z m-459-345l0 62 200 0 0-62z m120 146l-120 0 0 62 120 0z m300 146c-17 0-30-14-30-32 0-17 13-31 30-31 17 0 30 14 30 31 0 9-3 17-9 23-5 5-13 9-21 9z" horiz-adv-x="1000" />

<glyph glyph-name="flag-02" unicode="&#xe823;" d="M148 691c60 46 208 111 372 19 123-57 230-32 300 0l44 21 0-488-17-9c-96-45-247-61-377 9-102 55-210 35-272-19l0-249-63 0 0 292 1 0 0 399c0 9 4 19 12 25z m50-391c83 47 197 55 302-2 101-55 220-47 302-15l0 353c-80-27-189-38-309 17l-1 1-2 1c-124 70-237 30-292-5z" horiz-adv-x="1000" />

<glyph glyph-name="location-06" unicode="&#xe824;" d="M500 798c202 0 365-165 365-368 0-116-47-207-136-286-57-51-160-162-203-228-6-9-16-14-26-14-11 0-21 6-27 15-40 66-144 175-202 227-89 79-136 170-136 286 0 203 163 368 365 368z m-302-368c0-96 37-171 114-239 50-45 136-132 189-203 53 70 136 158 187 203 77 68 114 143 114 239 0 169-135 305-302 305-166 0-302-136-302-305z m304 180c97 0 177-79 177-177 0-97-80-177-177-177-98 0-178 80-178 177 0 98 80 177 178 177z m-115-177c0-63 51-114 115-114 63 0 114 51 114 114 0 64-51 115-114 115-64 0-115-51-115-115z" horiz-adv-x="1000" />

<glyph glyph-name="user" unicode="&#xe825;" d="M500 298c221 0 406-160 406-365l0-31-812 0 0 31c0 205 185 365 406 365z m0 500c121 0 219-98 219-219 0-121-98-219-219-219-121 0-219 98-219 219 0 121 98 219 219 219z m0-563c-181 0-324-121-342-270l684 0c-18 149-161 270-342 270z m-156 344c0-86 70-156 156-156 86 0 156 70 156 156 0 87-70 156-156 156-86 0-156-69-156-156z" horiz-adv-x="1000" />

<glyph glyph-name="play-circle-02" unicode="&#xe831;" d="M500 798c247 0 448-201 448-448 0-247-201-448-448-448-247 0-448 201-448 448 0 247 201 448 448 448z m-385-448c0-213 172-385 385-385 213 0 385 172 385 385 0 213-172 385-385 385-213 0-385-172-385-385z m281 167l292-167-292-167z" horiz-adv-x="1000" />

<glyph glyph-name="square-lock-02" unicode="&#xe832;" d="M506 798c119 0 213-97 213-220l0-72 146 0 0-604-729 0 0 604 144 0 4 73c0 124 104 219 222 219z m-308-834l604 0 0 479-604 0z m459 542l0 72c0 90-68 157-151 157-86 0-160-68-160-157l0-1-3-71z m-126-364l-62 0 0 125 62 0z" horiz-adv-x="1000" />

<glyph glyph-name="quote-down" unicode="&#xe838;" d="M52 715l396 0 0-448c0-156-126-282-281-282l0 63c121 0 218 98 218 219l0 52-333 0z m896 0l0-448c0-156-126-282-281-282l0 63c121 0 218 98 218 219l0 52-333 0 0 396z m-833-63l0-271 270 0 0 271z m500-271l270 0 0 271-270 0z" horiz-adv-x="1000" />

<glyph glyph-name="download-05" unicode="&#xe839;" d="M603 372l44-44-147-147-147 147 44 44 72-71 0 341 62 0 0-341z m-395-345l0 63 584 0 0-63z" horiz-adv-x="1000" />

<glyph glyph-name="home-09" unicode="&#xe83b;" d="M906 534l0-632-250 0 0 0-62 0 0 0-188 0 0 0-62 0 0 0-250 0 0 632 406 270z m-250-569l188 0 0 535-344 229-344-229 0-535 188 0 0 260 0 31 312 0z m-250 0l188 0 0 229-188 0z" horiz-adv-x="1000" />

<glyph glyph-name="copy-01" unicode="&#xe840;" d="M83 798l625 0c18 0 32-14 32-32l0-260 177 0c17 0 31-14 31-31l0-542c0-17-14-31-31-31l-542 0c-8 0-16 3-22 9-6 6-9 14-9 22l0 177-261 0c-8 0-16 4-22 10-6 5-9 13-9 22l0 625c0 8 3 16 9 22 6 6 14 9 22 9z m323-833l479 0 0 478-479 1z m271 541l0 229-562 0 0-562 229 0 0 302c0 8 3 16 9 22 6 6 14 9 22 9z" horiz-adv-x="1000" />

<glyph glyph-name="telegram" unicode="&#xe841;" d="M524 159l-146-162c-18-20-50-10-55 16l-39 235-215 115c-24 13-22 48 3 58l833 333c23 10 48-11 42-36l-165-749c-6-25-36-34-54-16z m350 516l-717-288 184-99 34-202 104 117-65 65 160 159 37 38 45-44-38-38-116-115 43-42 188-189z" horiz-adv-x="1000" />

<glyph glyph-name="whatsapp" unicode="&#xe842;" d="M500 798c247 0 448-200 448-448 0-247-201-448-448-448-79 0-149 17-214 53l-194-51c-23-6-45 15-38 39l52 194c-37 65-54 134-54 213 0 248 201 448 448 448z m-385-448c0-73 16-135 51-192l7-12-45-168 167 45 12-7c57-35 119-51 193-51 213 0 386 172 386 385 0 213-173 386-386 386-213 0-385-173-385-386z m178 240l122 0c16 0 29-11 31-26l26-161-72-73c22-30 49-58 80-82l71 73 164-28c15-2 26-15 26-31l0-120c0-18-15-32-32-32-93 0-175 28-242 71-135 89-211 244-206 379 1 17 15 30 32 30z m112-166l-16 104-65 0c3-47 17-97 42-144z m274-250l0 62-106 18-38-40c42-21 90-36 144-40z" horiz-adv-x="1000" />

<glyph glyph-name="cash-01" unicode="&#xe84c;" d="M52 725c0 17 14 31 31 31l834 0c17 0 31-14 31-31l0-625c0-17-14-31-31-31l-834 0c-17 0-31 14-31 31z m63-31l0-563 770 0 0 563z m385-146c75 0 135-61 135-135 0-75-60-136-135-136-75 0-135 61-135 136 0 74 60 135 135 135z m-375-604l0 62 750 0 0-62z m302 469c0-41 33-73 73-73 40 0 73 32 73 73 0 40-33 72-73 72-40 0-73-32-73-72z m302-42l0 83 84 0 0-83z m-458 0l-83 0 0 83 83 0z" horiz-adv-x="1000" />

<glyph glyph-name="chart-line-data-02" unicode="&#xe84d;" d="M156 741l0-650 166 280c-13 16-20 36-20 57 0 52 42 94 94 94 52 0 94-42 94-94 0-13-3-25-8-36l119-90c13 7 29 12 45 12 8 0 16-1 24-3l82 170c-20 17-33 43-33 72 0 52 42 94 94 94 51 0 93-42 93-94 0-52-42-94-93-94l-2 0-89-184c11-16 18-35 18-55 0-52-42-94-94-94-52 0-94 42-94 94 0 12 3 25 7 36l-119 89c-13-7-28-11-44-11-8 0-15 1-22 3l-186-315 687 0 0-63-750 0c-17 0-31 14-31 32l0 750z m657-157c-18 0-32-14-32-31 0-17 14-31 32-31 17 0 31 14 31 31 0 17-14 31-31 31z m-417-125c-17 0-31-14-31-31 0-17 14-31 31-31 17 0 31 14 31 31 0 17-14 31-31 31z m250-208c-17 0-31-14-31-31 0-17 14-31 31-31 17 0 31 14 31 31 0 17-14 31-31 31z" horiz-adv-x="1000" />

<glyph glyph-name="plus-sign-circle" unicode="&#xe84e;" d="M500 798c247 0 448-201 448-448 0-247-201-448-448-448-247 0-448 201-448 448 0 247 201 448 448 448z m-385-448c0-213 172-385 385-385 213 0 385 172 385 385 0 213-172 385-385 385-213 0-385-172-385-385z m354 167l62 0 0-136 136 0 0-62-136 0 0-136-62 0 0 136-136 0 0 62 136 0z" horiz-adv-x="1000" />

<glyph glyph-name="remove-circle" unicode="&#xe84f;" d="M510-98c-237 0-430 201-430 448 0 247 193 448 430 448 238 0 430-201 430-448 0-247-192-448-430-448z m-370 448c0-213 166-385 370-385 204 0 370 172 370 385 0 213-166 385-370 385-204 0-370-172-370-385z m570 31l0-62-400 0 0 62z" horiz-adv-x="1000" />

<glyph glyph-name="plus-sign" unicode="&#xe850;" d="M469 381l0 302 62 0 0-302 302 0 0-62-302 0 0-302-62 0 0 302-302 0 0 62z" horiz-adv-x="1000" />

<glyph glyph-name="minus-sign" unicode="&#xe851;" d="M167 381l666 0 0-62-666 0 0 62z" horiz-adv-x="1000" />

<glyph glyph-name="settings-02" unicode="&#xe852;" d="M391 762c49-84 169-84 218 0 9 14 28 19 43 11l144-82c7-4 13-11 15-19 2-8 1-17-3-24-48-81 13-185 109-185 17 0 31-14 31-31l0-164c0-17-14-31-31-31-96 0-157-104-109-185 4-7 5-16 3-24-2-8-8-15-15-19l-144-82c-15-9-34-3-43 11-49 84-169 84-218 0-9-14-28-20-43-11l-144 82c-7 4-12 11-15 19-2 8-1 17 4 24 47 81-14 185-110 185-17 0-31 14-31 31l0 164c0 17 14 31 31 31 96 0 157 104 110 185-5 7-6 16-4 24 3 8 8 15 15 19l145 82c14 9 33 3 42-11z m-276-359l0-106c114-19 186-139 145-248l95-54c74 91 216 91 291 0l94 54c-41 109 32 229 145 248l0 106c-113 19-186 139-145 248l-95 54c-74-91-216-91-290 0l-95-54c41-109-31-229-145-248z m385 124c98 0 177-79 177-177 0-98-79-177-177-177-98 0-177 79-177 177 0 98 79 177 177 177z m-115-177c0-63 52-115 115-115 63 0 115 52 115 115 0 63-52 115-115 115-63 0-115-52-115-115z" horiz-adv-x="1000" />

<glyph glyph-name="aparat" unicode="&#xe85a;" d="M463 821l-92 24c-20 5-40 6-60 4-21-3-40-10-58-20-17-10-33-24-45-40-12-16-21-34-27-54l-23-87c76 94 185 156 305 173z m-404-547l-22-85c-11-39-5-82 15-117 21-36 55-61 95-72l87-23c-93 73-156 180-175 297z m857 426l-98 26c49-38 91-86 122-140 31-55 51-115 59-177l27 102c11 40 5 82-16 117-20 36-54 61-94 72z m-318-820l94-25c40-11 82-5 117 16 36 20 62 54 72 94l27 100c-75-100-187-167-310-185z m-67 904c-85 0-169-26-241-73-71-48-126-116-159-195-33-79-42-166-25-251 17-84 58-161 119-222 60-60 138-102 222-118 84-17 171-9 250 24 79 33 147 89 195 160 47 71 73 155 73 241 0 115-46 225-127 307-81 81-192 127-307 127z m-245-217c4 24 16 46 33 64 18 17 40 29 64 34 24 5 48 3 71-6 23-10 42-25 56-46 14-20 21-44 21-68 0-25-7-49-20-69-14-21-33-37-55-46-23-10-48-12-72-8-16 3-31 10-45 18-13 9-25 21-34 34-9 14-16 29-19 45-3 16-3 32 0 48z m180-374c-5-24-16-47-34-64-17-17-39-29-63-34-24-5-49-3-71 7-23 9-42 25-56 45-14 20-21 44-21 69 0 24 7 48 20 68 14 21 33 37 55 46 23 10 48 12 72 8 16-3 31-9 45-18 13-9 25-21 34-34 9-14 16-29 19-45 3-16 3-32 0-48z m53 100c-11 2-21 7-29 15-7 7-13 17-15 28-2 10-1 22 3 32 4 10 11 18 20 24 9 7 20 10 30 10 11 0 22-3 31-9 9-6 16-15 21-25 4-9 5-21 3-31-1-7-4-14-8-20-4-6-9-12-15-16-6-4-13-7-20-8-7-1-14-2-21 0z m258-160c-5-24-16-46-34-64-17-17-39-29-63-34-24-5-49-3-71 7-23 9-43 25-56 45-14 20-21 44-22 69 0 24 7 48 21 68 13 21 33 37 55 46 23 10 48 13 72 8 16-3 31-9 44-18 14-9 26-21 35-34 9-14 15-29 19-45 3-16 3-32 0-48z m-82 229c-24 5-46 17-64 34-17 17-29 39-34 63-5 24-3 49 7 72 9 22 25 42 45 55 20 14 44 22 69 22 24 0 48-7 68-21 21-13 37-32 46-55 10-22 13-47 8-71-3-16-9-32-18-45-9-14-21-26-34-35-14-9-29-15-45-18-16-4-32-4-48-1v0z" horiz-adv-x="1063" />

<glyph glyph-name="square-arrow-left-01" unicode="&#xe85c;" d="M125 756l750 0c17 0 31-14 31-31l0-750c0-17-14-31-31-31l-750 0c-17 0-31 14-31 31l0 750c0 17 14 31 31 31z m31-750l688 0 0 688-688 0z m452 533l-151-189 151-189-49-39-182 228 182 228z" horiz-adv-x="1000" />

<glyph glyph-name="square-arrow-right-01" unicode="&#xe85d;" d="M125 756l750 0c17 0 31-14 31-31l0-750c0-17-14-31-31-31l-750 0c-17 0-31 14-31 31l0 750c0 17 14 31 31 31z m31-750l688 0 0 688-688 0z m236 533l49 39 182-228-182-228-49 39 151 189z" horiz-adv-x="1000" />

<glyph glyph-name="facebook-02" unicode="&#xe874;" d="M325 798l498 0 0-248-239 0 0-99 212 0-87-225-125 0 0-324-259 0 0 324-148 0 0 225 148 0z m62-63l0-347-147 0 0-99 147 0 0-324 135 0 0 324 144 0 39 99-183 0 0 225 238 0 0 122z" horiz-adv-x="1000" />

<glyph glyph-name="telegram-1" unicode="&#xe875;" d="M524 159l-146-162c-18-20-50-10-55 16l-39 235-215 115c-24 13-22 48 3 58l833 333c23 10 48-11 42-36l-165-749c-6-25-36-34-54-16z m350 516l-717-288 184-99 34-202 104 117-65 65 160 159 37 38 45-44-38-38-116-115 43-42 188-189z" horiz-adv-x="1000" />

<glyph glyph-name="instagram" unicode="&#xe876;" d="M94 725c0 17 14 31 31 31l750 0c17 0 31-14 31-31l0-750c0-17-14-31-31-31l-750 0c-17 0-31 14-31 31z m62-31l0-688 688 0 0 688z m125-344c0 121 98 219 219 219 121 0 219-98 219-219 0-121-98-219-219-219-121 0-219 98-219 219z m219 156c-86 0-156-70-156-156 0-86 70-156 156-156 86 0 156 70 156 156 0 86-70 156-156 156z m188 32l0 83 83 0 0-83z" horiz-adv-x="1000" />

<glyph glyph-name="new-twitter" unicode="&#xe89f;" d="M919 725l-318-318 335-463-285 0-215 298-311-311-44 44 318 318-335 463 285 0 215-297 311 310z m-733-31l497-688 131 0-497 688z" horiz-adv-x="1000" />

<glyph glyph-name="linkedin-02" unicode="&#xe8a0;" d="M396 485l187 0c17 0 31-13 32-30 31 19 67 30 106 30 112 0 227-95 227-218l0-334c0-17-14-31-31-31l-188 0c-17 0-31 14-31 31l0 261c0 23-19 41-42 41-23 0-41-18-41-41l0-261c0-17-14-31-32-31l-187 0c-17 0-31 14-31 31l0 521c0 17 14 31 31 31z m-344-31c0 17 14 31 31 31l188 0c17 0 31-14 31-31l0-521c0-17-14-31-31-31l-188 0c-17 0-31 14-31 31z m375-31l0-458 125 0 0 229c0 57 47 104 104 104 58 0 104-47 104-104l0-229 125 0 0 302c0 84-82 156-164 156-45 0-86-22-113-57-8-11-22-15-35-11-12 4-21 16-21 29l0 39z m-312 0l0-458 125 0 0 458z m-63 250c0 69 56 125 125 125 69 0 125-56 125-125 0-69-56-125-125-125-69 0-125 56-125 125z m125 62c-34 0-62-28-62-62 0-35 28-63 62-63 35 0 63 28 63 63 0 34-28 62-63 62z" horiz-adv-x="1000" />
</font>
</defs>
</svg>
